<?xml version="1.0" standalone="no"?>
<!DOCTYPE svg PUBLIC "-//W3C//DTD SVG 1.1//EN" "http://www.w3.org/Graphics/SVG/1.1/DTD/svg11.dtd">
<svg xmlns="http://www.w3.org/2000/svg">
<defs >
<font id="NewsCycle" horiz-adv-x="803" ><font-face
    font-family="News Cycle"
    units-per-em="2048"
    panose-1="2 0 8 3 0 0 0 0 0 0"
    ascent="2574"
    descent="-794"
    alphabetic="0" />
<glyph unicode=" " glyph-name="space" horiz-adv-x="512" />
<glyph unicode="!" glyph-name="exclam" horiz-adv-x="342" d="M48 1446H291L254 346H86L48 1446ZM50 0V243H294V0H50Z" />
<glyph unicode="&quot;" glyph-name="quotedbl" horiz-adv-x="578" d="M334 1000L414 1250H340V1493H584V1296L432 1000H334ZM23 1000L103 1250H29V1493H273V1296L121 1000H23Z" />
<glyph unicode="#" glyph-name="numbersign" horiz-adv-x="1353" d="M590 652H748V894H590V652ZM138 450V652H376V894H138V1096H376V1518H590V1096H748V1518H962V1096H1208V894H962V652H1208V450H962V0H748V450H590V0H376V450H138Z" />
<glyph unicode="$" glyph-name="dollar" horiz-adv-x="1225" d="M718 185Q865 207 865 398Q865 499 835 551T718 636V185ZM375 1127Q375 1061 397 1017T478 948V1314Q375 1270 375 1127ZM197 916T173 982T149 1130T186 1290T298 1430T478 1518V1565H718V1521Q872
1488 962 1371Q996 1326 1011 1297L1027 1266L856 1176Q823 1264 718 1317V868L773 847Q925 787 996 707Q1051 643 1070 593Q1105 495 1105 421T1092 294T1049 185T975 86Q876 -14 718 -16V-219H478V5Q311 48 205 176Q180 206 169 224T157 243L319 348Q319 348
324 336T341 303T370 262Q410 211 478 189V716Q396 734 333 781T233 872Z" />
<glyph unicode="%" glyph-name="percent" horiz-adv-x="1075" d="M198 1298T198 1241T238 1144T335 1104T432 1144T472 1241T432 1338T335 1378T238 1338ZM48 1122T48 1241T132 1444T335 1528T538 1444T622 1241T538 1038T336 954T133 1038ZM629 323T629 266T669
169T766 129T863 169T903 266T863 363T766 403T669 363ZM479 148T479 266T563 468T766 553T969 469T1053 266T969 64T767 -21T564 63ZM15 19L903 1584L1090 1479L180 -75L15 19Z" />
<glyph unicode="&amp;" glyph-name="ampersand" horiz-adv-x="1424" d="M523 1204Q523 1058 552 988Q757 1094 757 1218Q757 1272 727 1317T642 1363T555 1318T523 1204ZM368 614Q313 550 313 447T380 261T550 177T711 197T828 267Q792 306 739 375L483 720Q392
642 368 614ZM99 411Q99 682 393 882Q360 944 335 1048T309 1228T351 1377T467 1499T629 1547T794 1501T909 1382T949 1240T931 1116T887 1024T815 947T730 882L632 822Q696 720 806 583T960 408Q1028 543 1021 735H1235Q1235 473 1083 270Q1147 228 1280 232Q1313
233 1327 233V0Q1169 0 1136 10T1074 33Q1023 54 966 111Q888 35 790 9T567 -18T334 40T163 197T99 411Z" />
<glyph unicode="&apos;" glyph-name="quotesingle" horiz-adv-x="334" d="M44 1000L124 1250H50V1493H294V1296L142 1000H44Z" />
<glyph unicode="(" glyph-name="parenleft" horiz-adv-x="607" d="M317 784T317 689T333 494Q391 139 589 -163L607 -191L427 -317Q422 -317 358 -211Q327 -160 291 -92T217 67T149 253T99 464T79 689T99 914T148 1123T241 1369T407 1667L427 1695L607 1569L589
1541Q577 1524 547 1472T490 1364T430 1227T373 1064T333 884Z" />
<glyph unicode=")" glyph-name="parenright" horiz-adv-x="607" d="M290 559T290 689T260 958T191 1195T104 1389T34 1518L0 1569L180 1695L218 1642Q241 1607 301 1497T407 1275T490 1002T528 689T492 379T405 100Q300 -145 216 -266L180 -317L0 -191L34 -140Q54
-107 103 -11T191 182T259 419Z" />
<glyph unicode="*" glyph-name="asterisk" horiz-adv-x="692" d="M24 698L73 846L272 783V986H421V783L619 847L666 700L469 638L586 472L468 382L346 556L223 383L101 473L225 640L24 698Z" />
<glyph unicode="+" glyph-name="plus" horiz-adv-x="1006" d="M31 633V848H345V1162H559V848H872V633H559V319H345V633H31Z" />
<glyph unicode="," glyph-name="comma" horiz-adv-x="444" d="M44 -296L124 -46H50V197H294V0L142 -296H44Z" />
<glyph unicode="-" glyph-name="hyphen" horiz-adv-x="512" d="M0 488V669H512V488H0Z" />
<glyph unicode="." glyph-name="period" horiz-adv-x="343" d="M50 0V243H294V0H50Z" />
<glyph unicode="/" glyph-name="slash" horiz-adv-x="1003" d="M18 -14L780 1616L974 1526L210 -106L18 -14Z" />
<glyph unicode="0" glyph-name="zero" horiz-adv-x="1146" d="M844 746Q844 1332 585 1332Q368 1332 315 963Q301 858 301 763T306 604T324 475T358 361T410 271Q474 189 585 189Q705 189 762 273Q802 332 814 388T832 480T840 566Q844 641 844 746ZM62 735Q62
810 68 882T92 1034T135 1184T202 1320T297 1431Q413 1533 587 1533Q816 1533 947 1320Q1083 1099 1083 744Q1083 255 857 74Q749 -12 587 -12Q352 -12 215 171Q62 376 62 735Z" />
<glyph unicode="1" glyph-name="one" horiz-adv-x="903" d="M81 1400L408 1515H582V230H802V0H99V230H343V1291L149 1234L81 1400Z" />
<glyph unicode="2" glyph-name="two" horiz-adv-x="1197" d="M73 0Q73 137 89 192T124 293T170 379T237 469T330 567Q448 676 564 751T721 860T791 937Q840 1008 840 1137Q840 1206 782 1267Q720 1334 603 1334Q445 1334 384 1201Q355 1135 355 1058H116Q116 1197
179 1305T359 1474T601 1535T813 1500T957 1407Q1079 1284 1079 1125Q1079 978 987 858Q912 759 788 664L714 609Q590 519 467 401T336 230H1058V0H73Z" />
<glyph unicode="3" glyph-name="three" horiz-adv-x="1186" d="M52 249L211 378Q313 249 456 202Q513 183 571 183Q689 183 759 245T829 423Q829 515 757 598Q682 686 570 686H359V890H570Q719 890 767 1044Q780 1085 780 1129Q780 1213 718 1273T556 1334Q379
1334 232 1176L91 1308Q161 1406 296 1470T602 1535Q688 1535 767 1500T900 1409Q1019 1287 1019 1151Q1019 976 889 837Q857 804 831 792Q916 764 990 656Q1068 543 1068 412Q1068 199 900 72Q782 -18 600 -18Q240 -18 52 249Z" />
<glyph unicode="4" glyph-name="four" horiz-adv-x="1290" d="M373 552H747V1130L373 552ZM115 351V546L747 1515H987V552H1217V351H987V0H747V351H115Z" />
<glyph unicode="5" glyph-name="five" horiz-adv-x="1058" d="M69 291L228 405Q264 315 340 247Q413 183 508 183Q610 183 686 264Q770 356 770 529Q770 716 664 792Q608 832 552 832T453 816T384 775Q327 724 321 686H118V1515H926V1314H357V993Q364 1007 425
1020T560 1034T719 998T867 897T970 738T1009 508T948 247T774 52T517 -18Q306 -18 162 137Q89 215 69 291Z" />
<glyph unicode="6" glyph-name="six" horiz-adv-x="1180" d="M831 607T759 687T574 767Q473 767 402 691Q349 633 319 533Q315 520 315 520Q327 358 398 275T573 191Q669 191 747 268Q831 349 831 478ZM312 851Q438 969 596 969Q697 969 786 931T937 827Q1070
687 1070 490Q1070 342 996 217Q862 -10 580 -10Q335 -10 209 169T82 682Q82 1083 243 1302T699 1521Q793 1521 872 1483T996 1401L896 1225Q809 1320 683 1320Q529 1320 423 1172Q340 1056 312 851Z" />
<glyph unicode="7" glyph-name="seven" horiz-adv-x="988" d="M67 1290V1515H986V1288L425 0H174L736 1290H67Z" />
<glyph unicode="8" glyph-name="eight" horiz-adv-x="1219" d="M594 907Q838 1019 838 1152Q838 1199 803 1241T714 1306T613 1330T514 1306T425 1237T386 1130T446 1005T594 907ZM487 655T406 566T325 406T374 285Q473 183 637 183Q720 183 804 243Q842 271 867
313T893 402Q893 573 597 700Q487 655 406 566ZM86 394Q86 563 234 696Q308 761 399 805Q279 858 213 947T147 1144T208 1340T376 1480T599 1531T801 1499T948 1413Q1077 1299 1077 1154Q1077 999 899 862Q853 825 801 797L861 767Q1030 680 1090 566Q1132 487
1132 398T1091 233T981 101Q833 -18 661 -18T362 32T161 178T86 394Z" />
<glyph unicode="9" glyph-name="nine" horiz-adv-x="1180" d="M329 896T401 816T586 736Q687 736 758 812Q811 870 841 970Q845 983 845 983Q833 1145 762 1228T587 1312Q491 1312 413 1235Q329 1154 329 1025ZM848 652Q722 534 564 534Q463 534 374 572T223 676Q90
816 90 1013Q90 1161 164 1286Q298 1513 580 1513Q825 1513 951 1334T1078 821Q1078 420 917 201T461 -18Q367 -18 288 20T164 102L264 278Q351 183 477 183Q631 183 737 331Q820 447 848 652Z" />
<glyph unicode=":" glyph-name="colon" horiz-adv-x="343" d="M50 812V1055H294V812H50ZM50 0V243H294V0H50Z" />
<glyph unicode=";" glyph-name="semicolon" horiz-adv-x="342" d="M50 812V1055H294V812H50ZM44 -296L124 -46H50V197H294V0L142 -296H44Z" />
<glyph unicode="&lt;" glyph-name="less" horiz-adv-x="1029" d="M314 744L975 216L869 88L48 744L869 1400L975 1272L314 744Z" />
<glyph unicode="=" glyph-name="equal" horiz-adv-x="942" d="M59 788V1003H883V788H59ZM59 440V655H883V440H59Z" />
<glyph unicode="&gt;" glyph-name="greater" horiz-adv-x="1029" d="M709 744L48 1272L154 1400L975 744L154 88L48 216L709 744Z" />
<glyph unicode="?" glyph-name="question" horiz-adv-x="887" d="M233 0V243H476V0H233ZM74 1289Q144 1429 233 1480Q314 1526 421 1526T613 1477T749 1341T801 1171T782 1028T734 920T668 824T595 736T529 656Q462 570 462 507V343H252V494Q252 597 317 697Q346
741 381 785L451 871Q535 971 558 1027T581 1144T534 1267T420 1329Q300 1329 231 1184L74 1289Z" />
<glyph unicode="@" glyph-name="at" horiz-adv-x="1620" d="M762 807T706 745T650 592Q650 412 784 412Q836 412 889 456T950 528V785Q912 807 866 807Q762 807 706 745ZM960 321Q886 230 726 230Q553 230 475 392Q436 472 436 562Q436 742 553 871T836 1000Q912
1000 960 968L976 1020H1154V405Q1154 360 1171 345T1203 323Q1224 314 1247 314Q1295 314 1330 407T1366 645T1301 916T1112 1115T825 1188Q663 1188 516 1100Q335 994 279 778Q258 698 258 598T297 398T408 222T587 100T800 54Q982 54 1056 104L1080 120L1179
-15Q1179 -26 1138 -50T1058 -92Q962 -132 819 -132T548 -87T334 33T185 206Q66 393 66 614Q66 770 112 897T234 1108T410 1248Q597 1354 811 1354T1192 1259T1458 994T1556 618Q1556 423 1482 284Q1446 215 1386 175T1229 134T1052 182T960 321Z" />
<glyph unicode="A" glyph-name="A" horiz-adv-x="1130" d="M432 640H715L574 1129L432 640ZM2 0L434 1515H696L1128 0H897L772 439H375L250 0H2Z" />
<glyph unicode="B" glyph-name="B" horiz-adv-x="1148" d="M362 888H608Q709 888 783 966Q841 1026 841 1125Q841 1314 608 1314H362V888ZM362 201H618Q758 201 816 267Q865 322 865 430Q865 519 798 598Q727 682 618 682H362V201ZM123 0V1515H610Q824 1515 943
1410Q1058 1309 1058 1153Q1058 896 872 825Q840 812 797 802Q923 778 1005 681Q1092 578 1092 411Q1092 173 942 74Q827 0 618 0H123Z" />
<glyph unicode="C" glyph-name="C" horiz-adv-x="1183" d="M79 570Q63 664 63 760T78 949T122 1130T199 1293T308 1424Q438 1543 631 1543Q876 1543 1018 1298Q1087 1179 1111 1053V1052L903 996Q887 1103 865 1152T821 1235T773 1291Q711 1342 633 1342T498 1307T406
1214T346 1079Q302 937 302 759Q302 287 526 195Q574 175 628 175T724 189T796 225T847 279T883 341T905 406Q920 464 920 514L1143 483Q1098 291 986 150Q844 -26 629 -26Q365 -26 204 225Q113 366 79 570Z" />
<glyph unicode="D" glyph-name="D" horiz-adv-x="1229" d="M362 201H506Q715 201 828 352Q939 502 939 747Q939 1214 640 1297Q579 1314 506 1314H362V201ZM123 0V1515H480Q1028 1515 1142 1074Q1178 933 1178 777T1157 514T1083 311T953 147Q782 0 480 0H123Z" />
<glyph unicode="E" glyph-name="E" horiz-adv-x="1079" d="M123 0V1515H990V1314H362V895H799V693H362V215H1028V0H123Z" />
<glyph unicode="F" glyph-name="F" horiz-adv-x="1041" d="M123 0V1515H990V1314H362V895H799V693H362V0H123Z" />
<glyph unicode="G" glyph-name="G" horiz-adv-x="1262" d="M929 1035Q864 1342 657 1342Q438 1342 350 1093Q301 954 301 767Q301 317 492 207Q548 175 611 175T717 187T790 219T842 270T876 332T895 406Q906 471 908 563H617V765H1143V0H949V120Q885 42 809 9Q727
-26 620 -26T424 17T270 137T157 314Q62 515 62 769Q62 1012 153 1205Q254 1418 432 1499Q529 1543 618 1543T761 1531T870 1486T971 1401Q1070 1288 1133 1072L929 1035Z" />
<glyph unicode="H" glyph-name="H" horiz-adv-x="1276" d="M123 0V1515H362V896H914V1515H1153V0H914V695H362V0H123Z" />
<glyph unicode="I" glyph-name="I" horiz-adv-x="437" d="M99 0V1515H338V0H99Z" />
<glyph unicode="J" glyph-name="J" horiz-adv-x="908" d="M2 291L143 363Q181 246 291 195Q335 175 373 175T433 181T469 195T497 220T517 251T530 290T539 333T544 381Q546 422 546 481V1515H785V422Q785 58 512 -11Q452 -26 384 -26T260 -9T167 32T100 93T53
157T24 221Q9 260 2 291Z" />
<glyph unicode="K" glyph-name="K" horiz-adv-x="1151" d="M123 0V1515H364V841L869 1515H1121L672 924L1149 0H886L519 723L364 519V0H123Z" />
<glyph unicode="L" glyph-name="L" horiz-adv-x="1017" d="M123 0V1515H362V230H988V0H123Z" />
<glyph unicode="M" glyph-name="M" horiz-adv-x="1478" d="M350 1026V0H116V1515H440L731 468H741L1032 1515H1356V0H1121V1026H1112L828 0H644L360 1026H350Z" />
<glyph unicode="N" glyph-name="N" horiz-adv-x="1272" d="M917 585V1515H1155V0H965L353 1162V0H115V1515H423L917 585Z" />
<glyph unicode="O" glyph-name="O" horiz-adv-x="1274" d="M310 910T306 858T302 752T306 644T320 532T347 423T390 327T452 247Q529 175 646 175Q971 175 971 753Q971 1224 751 1321Q703 1342 645 1342T537 1321T453 1266T391 1182T347 1081T321 970ZM73 601Q63
677 63 752T72 903T102 1057T154 1206T232 1338T339 1446Q466 1543 648 1543Q898 1543 1048 1337Q1210 1113 1210 752Q1210 384 1054 172Q908 -26 648 -26Q401 -26 243 173Q109 341 73 601Z" />
<glyph unicode="P" glyph-name="P" horiz-adv-x="1151" d="M861 1115Q861 1314 527 1314H362V859H527Q681 859 771 925T861 1115ZM123 0V1515H640Q922 1515 1035 1353Q1100 1259 1100 1124Q1100 884 954 752Q847 657 672 657H362V0H123Z" />
<glyph unicode="Q" glyph-name="Q" horiz-adv-x="1274" d="M310 910T306 858T302 752T306 644T320 532T347 423T390 327T452 247Q529 175 646 175Q971 175 971 753Q971 1224 751 1321Q703 1342 645 1342T537 1321T453 1266T391 1182T347 1081T321 970ZM73 601Q63
677 63 752T72 903T102 1057T154 1206T232 1338T339 1446Q466 1543 648 1543Q898 1543 1048 1337Q1210 1113 1210 752Q1210 384 1054 172Q939 17 754 -17Q756 -56 760 -64Q766 -76 775 -85T794 -96T824 -101Q848 -105 919 -105H1149V-283H1008Q803 -283 763 -277T691
-262T644 -244T612 -216T587 -178T572 -127Q563 -92 561 -19Q373 10 243 173Q109 341 73 601Z" />
<glyph unicode="R" glyph-name="R" horiz-adv-x="1121" d="M362 859H615Q720 859 790 916Q864 977 864 1103Q864 1314 529 1314H362V859ZM123 0V1515H632Q983 1515 1076 1264Q1103 1191 1103 1113T1086 971T1034 852Q959 732 813 701L1093 0H848L586 657H362V0H123Z" />
<glyph unicode="S" glyph-name="S" horiz-adv-x="1041" d="M24 388L216 451Q217 451 220 436T230 397T251 343T291 284T352 230Q430 175 546 175T716 232T771 367T755 494T699 579Q632 639 467 687Q176 772 93 950Q50 1043 50 1169Q50 1275 125 1376Q256 1543
497 1543Q688 1543 810 1428Q897 1347 940 1224L959 1171Q968 1147 971 1140L776 1071Q710 1281 570 1330Q535 1342 497 1342Q289 1342 289 1128Q289 1030 347 978Q395 933 473 907L521 891Q562 877 566 876L610 861Q781 801 841 755Q929 687 956 630Q1010 513
1010 383Q1010 281 952 176Q874 35 705 -9Q640 -26 563 -26T419 -12T302 26T212 81T143 146T94 215T61 281T40 336T29 374T24 388Z" />
<glyph unicode="T" glyph-name="T" horiz-adv-x="1062" d="M2 1314V1515H1059V1314H650V0H411V1314H2Z" />
<glyph unicode="U" glyph-name="U" horiz-adv-x="1234" d="M123 448V1515H362V505Q362 252 525 191Q567 175 619 175T713 189T781 224T826 277T854 337T869 401Q875 449 875 505V1515H1119V448Q1119 219 968 85Q843 -26 620 -26Q281 -26 170 231Q123 337 123 448Z" />
<glyph unicode="V" glyph-name="V" horiz-adv-x="1104" d="M552 516L849 1515H1102L652 0H452L2 1515H255L552 516Z" />
<glyph unicode="W" glyph-name="W" horiz-adv-x="1614" d="M2 1515H249L471 498H480L698 1515H924L1138 498H1150L1372 1515H1612L1261 0H1038L816 1057H806L580 0H353L2 1515Z" />
<glyph unicode="X" glyph-name="X" horiz-adv-x="1106" d="M1104 0H858L556 536L253 0H6L432 754L2 1515H246L548 983L840 1515H1085L668 770L1104 0Z" />
<glyph unicode="Y" glyph-name="Y" horiz-adv-x="1122" d="M680 701V0H442V701L2 1515H254L561 942L868 1515H1120L680 701Z" />
<glyph unicode="Z" glyph-name="Z" horiz-adv-x="1157" d="M44 0V136L777 1308H98V1515H1096V1354L403 230H1113V0H44Z" />
<glyph unicode="[" glyph-name="bracketleft" horiz-adv-x="619" d="M88 -302V1646H566V1496H326V-152H566V-302H88Z" />
<glyph unicode="\" glyph-name="backslash" horiz-adv-x="1007" d="M975 -14L804 -95L19 1526L213 1616L975 -14Z" />
<glyph unicode="]" glyph-name="bracketright" horiz-adv-x="619" d="M531 -302H53V-152H293V1496H53V1646H531V-302Z" />
<glyph unicode="^" glyph-name="asciicircum" horiz-adv-x="636" d="M69 1198L317 1446L566 1197L472 1105L319 1258L164 1103L69 1198Z" />
<glyph unicode="_" glyph-name="underscore" horiz-adv-x="1126" d="M79 0V181H1047V0H79Z" />
<glyph unicode="`" glyph-name="grave" horiz-adv-x="707" d="M154 1395L270 1518L597 1180L510 1094L154 1395Z" />
<glyph unicode="a" glyph-name="a" horiz-adv-x="939" d="M284 272Q284 213 313 187T385 160T449 165T492 180L529 199Q545 208 565 224L594 247Q602 254 620 270L638 287V534Q414 482 345 422Q284 368 284 272ZM668 0Q638 18 638 93L619 71Q533 -21 373 -21Q179
-21 107 116Q70 184 70 273T101 431T204 554Q333 650 638 711Q638 782 634 798T624 828T610 849T590 866T562 879Q523 889 476 889T387 875T321 842T276 800Q250 768 239 744L99 830Q143 921 175 951T238 1004T304 1039Q388 1070 475 1070T613 1061T711 1027T788
961Q852 872 852 701V149Q852 121 862 70T882 0H668Z" />
<glyph unicode="b" glyph-name="b" horiz-adv-x="1004" d="M521 892Q404 892 305 789V285Q306 284 319 267T347 234T385 202Q435 163 501 163T610 181T677 230T717 306Q743 385 743 495T730 676T697 787T645 852Q595 892 521 892ZM305 79Q297 0 289 0H63Q91 64
91 143V1515H305V985Q323 1012 380 1042T515 1073T658 1056T768 1009T848 937T903 846T936 739Q957 639 957 535T942 358T894 216T811 95Q703 -18 527 -18Q381 -18 305 79Z" />
<glyph unicode="c" glyph-name="c" horiz-adv-x="937" d="M59 520Q59 834 196 967Q304 1073 498 1073T803 909Q839 856 853 810L672 730Q664 812 605 860Q565 892 506 892Q273 892 273 529Q273 350 334 257T512 163Q594 163 645 223Q689 275 709 334L873 262Q850
173 775 93Q670 -18 506 -18Q59 -18 59 520Z" />
<glyph unicode="d" glyph-name="d" horiz-adv-x="993" d="M711 789Q612 892 495 892Q373 892 320 787Q273 695 273 511Q273 308 339 230Q395 163 505 163Q621 163 697 266Q710 284 711 285V789ZM925 143Q925 73 953 0H727Q724 5 721 14L711 79Q635 -18 489 -18Q237
-18 123 215Q59 345 59 508Q59 889 247 1009Q347 1073 503 1073Q580 1073 636 1043T711 985V1515H925V143Z" />
<glyph unicode="e" glyph-name="e" horiz-adv-x="936" d="M283 652H653Q653 730 626 787Q574 892 482 892Q427 892 386 868T323 804Q283 731 283 652ZM84 273T72 345T59 528T85 743T152 908T251 1008Q350 1073 484 1073Q610 1073 704 998Q880 856 872 471H273Q273
269 380 199Q435 163 495 163T596 178T660 212T704 256Q731 291 741 316L877 228Q803 99 719 44Q626 -18 515 -18T325 11T197 88T116 204Z" />
<glyph unicode="f" glyph-name="f" horiz-adv-x="591" d="M507 1530Q581 1530 586 1515V1336H518Q437 1335 412 1317Q368 1284 368 1235V1055H586V874H368V0H154V874H2V1055H154V1281Q154 1530 507 1530Z" />
<glyph unicode="g" glyph-name="g" horiz-adv-x="1008" d="M732 356T654 326T495 296T364 316Q355 307 331 291Q284 259 284 224Q284 177 435 159Q463 155 470 155T506 154T551 153T602 148T670 137Q842 98 890 55Q990 -36 990 -162Q990 -452 498 -452Q293 -452
161 -384Q20 -312 20 -163Q20 -31 212 42Q152 50 111 94T70 200Q70 328 224 395Q172 422 128 513T84 707T141 895T297 1027T516 1073Q572 1073 631 1052T716 1008Q802 1070 900 1074Q914 1075 946 1075T992 1076V896H988Q891 906 858 889Q848 884 848 879T860 843T877
795Q894 739 894 673T866 534T785 409ZM411 892T355 840T298 690T349 535T502 478Q631 478 670 618Q680 653 680 688T670 758T640 823Q595 892 503 892ZM251 -101T242 -122T233 -166T242 -206T264 -233T299 -252T341 -263T389 -269Q429 -272 474 -272T540 -272T595
-269T651 -263T699 -250T739 -230Q775 -202 775 -161T741 -93T655 -54T551 -34T453 -23T394 -14Q289 -56 270 -78Z" />
<glyph unicode="h" glyph-name="h" horiz-adv-x="997" d="M901 791V0H687V735Q687 807 644 849T540 892T421 857T333 786V0H119V1515H333V943Q463 1073 603 1073Q729 1073 812 1007Q901 936 901 791Z" />
<glyph unicode="i" glyph-name="i" horiz-adv-x="434" d="M106 0V1055H320V0H106ZM91 1147V1390H334V1147H91Z" />
<glyph unicode="j" glyph-name="j" horiz-adv-x="398" d="M-60 -165Q40 -165 84 -133T128 22V1055H342V-7Q342 -177 287 -245Q266 -271 249 -287T199 -315T145 -333T82 -342Q29 -346 -52 -346L-60 -165ZM114 1147V1390H356V1147H114Z" />
<glyph unicode="k" glyph-name="k" horiz-adv-x="925" d="M124 0V1515H338V662L642 1055H902L596 665L920 0H678L448 476L338 337V0H124Z" />
<glyph unicode="l" glyph-name="l" horiz-adv-x="451" d="M124 -3V1515H338V-3H124Z" />
<glyph unicode="m" glyph-name="m" horiz-adv-x="1595" d="M324 943Q454 1073 613 1073Q707 1073 779 1036T885 924Q1034 1073 1181 1073Q1308 1073 1400 1007Q1499 936 1499 791V0H1285V735Q1285 806 1233 849T1120 892T999 857T911 786V0H697V735Q697 807 654
849T550 892T420 856T324 786V0H110V1055H324V943Z" />
<glyph unicode="n" glyph-name="n" horiz-adv-x="988" d="M892 791V0H678V735Q678 807 635 849T531 892T412 857T324 786V0H110V1055H324V943Q382 1001 445 1037T594 1073Q724 1073 808 1003T892 791Z" />
<glyph unicode="o" glyph-name="o" horiz-adv-x="982" d="M279 649Q273 596 273 535T279 425T300 327T340 242Q394 162 492 162Q709 162 709 527Q709 741 645 824Q593 892 492 892Q307 892 279 649ZM59 528Q59 778 174 925T492 1073Q626 1073 724 1005Q923 866
923 527Q923 104 659 8Q586 -19 493 -19T325 8T202 83T120 201Q59 331 59 528Z" />
<glyph unicode="p" glyph-name="p" horiz-adv-x="1029" d="M332 266Q431 163 548 163Q670 163 723 268Q770 360 770 544Q770 747 704 825Q648 892 538 892Q423 892 346 789Q333 771 332 770V266ZM332 976Q408 1073 554 1073Q806 1073 920 840Q984 710 984 547Q984
166 796 46Q696 -18 540 -18Q464 -18 407 12T332 70V-410H118V1055H332V976Z" />
<glyph unicode="q" glyph-name="q" horiz-adv-x="1009" d="M711 266Q711 266 711 770Q710 771 697 789Q621 892 505 892Q395 892 339 825Q273 747 273 544Q273 360 320 268Q373 163 495 163Q612 163 711 266ZM711 976L727 1055H925V-410H711V70Q693 43 637 13T503
-18Q347 -18 247 46Q59 166 59 547Q59 710 123 840Q237 1073 489 1073Q635 1073 711 976Z" />
<glyph unicode="r" glyph-name="r" horiz-adv-x="651" d="M110 0V1055H324V910Q328 915 342 936L366 972Q440 1073 610 1073Q628 1073 646 1070V891Q464 888 384 790Q348 746 324 677V0H110Z" />
<glyph unicode="s" glyph-name="s" horiz-adv-x="890" d="M67 212L215 302Q250 252 280 222Q351 152 459 152Q546 152 583 188Q617 221 617 288Q617 364 568 402Q524 435 481 447L387 474Q224 520 152 598Q79 677 79 807Q79 918 170 993Q266 1073 445 1073Q606
1073 722 963Q772 916 785 884L661 786Q591 871 521 891Q485 902 427 902T327 872T285 784Q285 717 344 680Q396 647 449 631L539 606Q751 546 802 403Q823 345 823 266T774 120T643 18T480 -18T344 -8T240 27Q143 76 67 212Z" />
<glyph unicode="t" glyph-name="t" horiz-adv-x="614" d="M17 874V1055H174V1440H388V1055H609V874H388V308Q388 223 418 192T521 160Q550 160 579 164T609 169V18Q555 -7 526 -14T454 -21T391 -20T341 -13T290 3T245 34T207 82Q174 146 174 248V874H17Z" />
<glyph unicode="u" glyph-name="u" horiz-adv-x="998" d="M118 264V1055H332V320Q332 248 375 206T478 163T597 198T686 269V1055H900V0H686V112Q556 -18 416 -18Q290 -18 207 48Q118 119 118 264Z" />
<glyph unicode="v" glyph-name="v" horiz-adv-x="901" d="M5 1055H231L448 311L669 1055H895L571 0H323L5 1055Z" />
<glyph unicode="w" glyph-name="w" horiz-adv-x="1318" d="M510 0H292L6 1055H228L412 371L568 1055H752L908 373L1091 1055H1314L1026 0H808L660 652L510 0Z" />
<glyph unicode="x" glyph-name="x" horiz-adv-x="899" d="M2 1055H232L427 744L631 1055H860L539 565L894 0H664L444 350L233 0H2L328 536L2 1055Z" />
<glyph unicode="y" glyph-name="y" horiz-adv-x="903" d="M2 1055H240L462 422L660 1055H898L546 -32Q493 -196 458 -248Q423 -300 395 -330T333 -378Q228 -437 23 -406Q14 -405 14 -405L24 -206Q61 -222 121 -222T218 -206T277 -165T316 -110T340 -48Q355 13
356 64L2 1055Z" />
<glyph unicode="z" glyph-name="z" horiz-adv-x="795" d="M2 0V137L476 874H56V1055H772V935L302 194H790V0H2Z" />
<glyph unicode="{" glyph-name="braceleft" horiz-adv-x="789" d="M123 581Q123 581 123 769Q237 770 285 830T333 1014Q333 1064 294 1128Q280 1151 268 1196T255 1304T270 1422Q334 1670 723 1670V1499Q572 1499 501 1424Q470 1390 455 1353T439 1286T459 1209Q517
1070 517 990Q517 872 453 783T289 675Q389 656 453 567T517 379T459 141Q439 94 439 64T455 -3Q515 -149 723 -149V-320Q518 -320 405 -253Q352 -221 318 -174T270 -72T255 71T306 242Q333 286 333 336Q333 459 285 519T123 581Z" />
<glyph unicode="|" glyph-name="bar" horiz-adv-x="358" d="M64 -141V1563H303V-141H64Z" />
<glyph unicode="}" glyph-name="braceright" horiz-adv-x="789" d="M666 581Q553 580 505 520T456 336Q456 284 483 241Q534 161 534 64T511 -100T434 -216Q325 -320 66 -320V-149Q273 -149 334 -3Q350 34 350 64T330 140Q272 280 272 379T336 567T500 675Q400
694 336 783T272 990Q272 1070 330 1210Q350 1256 350 1286T335 1353T288 1424Q218 1499 66 1499V1670Q432 1670 510 1450Q534 1384 534 1313T522 1197T495 1128Q456 1066 456 1014Q456 891 504 831T666 769V581Z" />
<glyph unicode="~" glyph-name="asciitilde" horiz-adv-x="797" d="M751 1312Q680 1112 528 1112Q444 1112 379 1157T274 1202T214 1181T177 1119L47 1179Q70 1270 136 1324T258 1378T352 1364T415 1332Q479 1286 527 1286Q565 1286 582 1309Q604 1340 617 1374L751
1312Z" />
<glyph unicode="&#xa0;" glyph-name="uni00A0" horiz-adv-x="512" />
<glyph unicode="&#xa1;" glyph-name="exclamdown" horiz-adv-x="342" d="M294 -169H51L88 931H256L294 -169ZM292 1277V1034H48V1277H292Z" />
<glyph unicode="&#xa2;" glyph-name="cent" horiz-adv-x="996" d="M353 845T333 760T313 524T332 290T419 183V874Q353 845 333 760ZM99 571T104 622T121 734T157 848T215 948Q288 1047 419 1063V1286H633V1068Q695 1055 744 1020T820 943Q876 856 887 796L892
769L720 729Q720 796 674 851Q657 872 633 884V173Q674 191 704 233T744 310L754 343L912 286L904 258Q859 117 744 36Q693 -1 633 -13V-241H419V-8Q287 8 214 111Q142 211 120 323Q99 433 99 502Z" />
<glyph unicode="&#xa3;" glyph-name="sterling" horiz-adv-x="1118" d="M386 488Q386 252 356 223H670Q828 223 908 300Q927 317 938 342L1073 192Q1073 191 1070 184T1062 168T1042 138T1007 101T954 65T878 32Q779 0 642 0H106V132Q122 171 140 281T158 466V586H24V806H158V930Q158
1200 205 1308Q256 1424 346 1471Q458 1531 636 1531Q670 1531 723 1525T778 1515V1334L676 1337Q515 1337 458 1275Q424 1237 414 1202T398 1140T391 1075Q386 1011 386 916V806H664V586H386V488Z" />
<glyph unicode="&#xa4;" glyph-name="currency" horiz-adv-x="780" d="M256 802T256 745T296 648T393 608T490 648T530 745T490 842T393 882T296 842ZM147 596Q106 662 106 745Q106 827 147 893L45 995L138 1088L239 987Q307 1032 393 1032Q476 1032 541 991L640
1090L735 995L637 897Q680 830 680 745Q680 658 635 590L733 492L640 399L541 498Q475 458 393 458Q309 458 242 501L140 399L45 494L147 596Z" />
<glyph unicode="&#xa5;" glyph-name="yen" horiz-adv-x="1122" d="M4 1515H258L561 950L864 1515H1118L671 688H916V539H676V422H916V273H676V0H446V273H226V422H446V539H226V688H451L4 1515Z" />
<glyph unicode="&#xa6;" glyph-name="brokenbar" horiz-adv-x="368" d="M64 794V1563H303V794H64ZM64 -141V620H303V-141H64Z" />
<glyph unicode="&#xa7;" glyph-name="section" horiz-adv-x="892" d="M789 436Q797 420 803 403Q824 345 824 266T775 120T644 18T481 -18T345 -8T241 27Q144 76 68 212L216 302Q251 252 281 222Q352 152 460 152Q547 152 584 188Q618 221 618 288Q618 364 569
402Q525 435 482 447L388 474Q225 520 153 598Q80 677 80 807Q80 883 119 939Q80 1007 80 1103Q80 1214 171 1289Q267 1369 446 1369Q607 1369 723 1259Q773 1212 786 1180L662 1082Q592 1167 522 1187Q487 1198 428 1198T328 1168T286 1080Q286 1013 345 976Q397
943 450 927L540 902Q752 842 803 699Q824 641 824 564Q824 494 789 436ZM288 805Q286 795 286 784Q286 717 345 680Q397 647 450 631L540 606Q582 594 618 579Q617 613 612 631Q605 653 596 668T569 698T536 720T496 737T454 752L388 770Q333 785 288 805Z" />
<glyph unicode="&#xa8;" glyph-name="dieresis" horiz-adv-x="655" d="M396 1203V1446H638V1203H396ZM16 1203V1446H258V1203H16Z" />
<glyph unicode="&#xa9;" glyph-name="copyright" horiz-adv-x="1098" d="M757 639Q707 450 555 450Q483 450 432 492Q333 571 333 742Q333 859 387 943Q444 1033 555 1033Q669 1033 722 919Q739 881 745 851L656 830Q644 902 598 933Q577 947 547 947T491 917Q444
861 444 742Q444 536 556 536Q622 536 655 619Q662 637 663 651L757 639ZM59 643T59 742T98 932T203 1088T359 1193T549 1232T739 1193T896 1089T1000 932T1039 742T1001 552T896 396T740 291T550 252T360 291T203 395T98 552ZM164 849T164 744T215 550T356 410T549
358T743 409T883 550T935 744T884 938T743 1078T550 1130T356 1079T216 938Z" />
<glyph unicode="&#xaa;" glyph-name="ordfeminine" horiz-adv-x="554" d="M246 1123Q285 1123 348 1178V1286Q268 1268 231 1245T193 1178Q193 1123 246 1123ZM348 1093Q299 1044 247 1044T167 1056T126 1088Q100 1125 100 1168Q100 1253 156 1295T348 1363Q348
1425 318 1435Q302 1440 279 1440T238 1434T209 1419T190 1401Q178 1387 174 1377L113 1415Q140 1472 178 1494Q221 1519 291 1519T401 1485T441 1358V1118Q441 1079 454 1053H361Q348 1061 348 1093Z" />
<glyph unicode="&#xab;" glyph-name="guillemotleft" horiz-adv-x="1022" d="M110 1276L406 1574L508 1466L320 1276L510 1084L404 978L110 1276ZM478 1276L774 1574L876 1466L688 1276L878 1084L772 978L478 1276Z" />
<glyph unicode="&#xac;" glyph-name="logicalnot" horiz-adv-x="1201" d="M79 667V849H1055V339H875V667H79Z" />
<glyph unicode="&#xad;" glyph-name="uni00AD" horiz-adv-x="1130" d="M101 666V815H1029V666H101Z" />
<glyph unicode="&#xae;" glyph-name="registered" horiz-adv-x="1098" d="M568 787Q638 787 638 852Q638 884 614 895T535 907H482V787H568ZM379 492V1002H596Q709 1002 743 898Q751 874 751 843T729 764T662 700L752 492H636L543 695H482V492H379ZM59 643T59
742T98 932T203 1088T359 1193T549 1232T739 1193T896 1089T1000 932T1039 742T1001 552T896 396T740 291T550 252T360 291T203 395T98 552ZM164 849T164 744T215 550T356 410T549 358T743 409T883 550T935 744T884 938T743 1078T550 1130T356 1079T216 938Z" />
<glyph unicode="&#xaf;" glyph-name="overscore" horiz-adv-x="807" d="M99 1203V1352H708V1203H99Z" />
<glyph unicode="&#xb0;" glyph-name="degree" horiz-adv-x="798" d="M262 1298T262 1241T302 1144T399 1104T496 1144T536 1241T496 1338T399 1378T302 1338ZM112 1122T112 1241T196 1444T399 1528T602 1444T686 1241T602 1038T400 954T197 1038Z" />
<glyph unicode="&#xb1;" glyph-name="plusminus" horiz-adv-x="915" d="M34 189V404H875V189H34ZM34 799V1014H348V1328H562V1014H875V799H562V485H348V799H34Z" />
<glyph unicode="&#xb2;" glyph-name="two.superior" horiz-adv-x="501" d="M94 1055Q94 1132 130 1182Q171 1237 235 1278T313 1341T327 1392T308 1442T252 1461T197 1435T180 1377H107Q107 1441 149 1481T257 1522T361 1484T400 1409T391 1348T362 1304Q334 1273
292 1243T213 1177T174 1125H393V1055H94Z" />
<glyph unicode="&#xb3;" glyph-name="three.superior" horiz-adv-x="510" d="M113 1448Q162 1517 268 1517Q320 1517 357 1480T394 1404T375 1333T337 1292Q364 1283 386 1249T409 1169T372 1085T267 1046Q159 1046 101 1127L149 1166Q200 1107 247 1107Q337 1107
337 1180Q337 1209 315 1234T258 1259H194V1321H258Q289 1321 305 1343T322 1392T304 1437T243 1456T155 1408L113 1448Z" />
<glyph unicode="&#xb4;" glyph-name="acute" horiz-adv-x="665" d="M554 1396L198 1095L111 1181L438 1519L554 1396Z" />
<glyph unicode="&#xb5;" glyph-name="micro" horiz-adv-x="1022" d="M332 -410H118V1055H332V320Q332 248 375 206T478 163T597 198T686 269V1055H900V0H686V112Q556 -18 416 -18Q372 -18 332 -10V-410Z" />
<glyph unicode="&#xb6;" glyph-name="paragraph" horiz-adv-x="1140" d="M658 813H796V1314H658V813ZM292 1130Q290 1105 290 1077T293 1021T305 958T329 895Q364 830 430 828V1299Q304 1287 292 1130ZM52 1061Q52 1111 57 1150T75 1233T109 1316T163 1393T238
1456Q329 1515 466 1515H1024V0H796V611H658V0H430V611Q226 611 115 820Q52 939 52 1061Z" />
<glyph unicode="&#xb7;" glyph-name="middot" horiz-adv-x="343" d="M50 744V987H294V744H50Z" />
<glyph unicode="&#xb8;" glyph-name="cedilla" horiz-adv-x="340" d="M194 0Q290 -96 290 -215Q290 -298 178 -332Q112 -352 6 -347V-195Q131 -195 131 -149Q131 -69 75 0H194Z" />
<glyph unicode="&#xb9;" glyph-name="one.superior" horiz-adv-x="458" d="M116 1480L215 1515H268V1124H335V1055H122V1124H196V1446L137 1429L116 1480Z" />
<glyph unicode="&#xba;" glyph-name="ordmasculine" horiz-adv-x="567" d="M188 1127T283 1127T378 1286Q378 1363 358 1404T284 1445T209 1404T188 1286Q188 1127 283 1127ZM471 1048T283 1048T95 1286Q95 1395 144 1459T282 1524T420 1459T471 1286Q471 1048 283 1048Z" />
<glyph unicode="&#xbb;" glyph-name="guillemotright" horiz-adv-x="955" d="M878 1276L582 978L480 1086L668 1276L478 1468L584 1574L878 1276ZM510 1276L214 978L112 1086L300 1276L110 1468L216 1574L510 1276Z" />
<glyph unicode="&#xbc;" glyph-name="onequarter" horiz-adv-x="1153" d="M681 275H867V563L681 275ZM552 175V272L867 755H986V275H1101V175H986V0H867V175H552ZM58 1458L221 1515H308V875H417V760H67V875H188V1403L92 1375L58 1458ZM115 -47L863 1554H1021L273
-47H115Z" />
<glyph unicode="&#xbd;" glyph-name="onehalf" horiz-adv-x="1171" d="M58 1458L221 1515H308V875H417V760H67V875H188V1403L92 1375L58 1458ZM115 -47L863 1554H1021L273 -47H115ZM611 -13Q611 76 627 113T663 182T711 242Q777 310 862 365T970 455T994 540T963
621T886 652T815 639T776 602Q752 561 752 514H633Q633 619 703 685T880 752T1050 691T1113 548Q1113 432 983 330Q963 314 916 280T808 187T742 102H1102V-13H611Z" />
<glyph unicode="&#xbe;" glyph-name="threequarters" horiz-adv-x="1231" d="M759 275H945V563L759 275ZM630 175V272L945 755H1064V275H1179V175H1064V0H945V175H630ZM193 -47L941 1554H1099L351 -47H193ZM61 902L140 966Q212 869 319 869Q377 869 412 899T448
982T411 1077T319 1119H214V1221H319Q369 1221 396 1257T424 1337T393 1412T312 1442Q225 1442 151 1364L80 1429Q114 1478 181 1510T334 1542T481 1481T543 1357T511 1239T449 1172Q492 1158 529 1102T567 994T552 905T509 836Q447 769 334 769Q154 769 61 902Z"
/>
<glyph unicode="&#xbf;" glyph-name="questiondown" horiz-adv-x="860" d="M642 1526V1283H399V1526H642ZM801 237Q730 97 642 46Q561 0 454 0T262 49T126 185T74 355T92 498T141 606T207 702T279 790T346 870Q413 956 413 1019V1183H623V1032Q623 929 557 829Q528
785 493 741L423 655Q339 555 317 499T294 382T341 259T455 197Q575 197 644 342L801 237Z" />
<glyph unicode="&#xc0;" glyph-name="Agrave" horiz-adv-x="1130" d="M238 1966L354 2089L681 1751L594 1665L238 1966ZM432 640H715L574 1129L432 640ZM2 0L434 1515H696L1128 0H897L772 439H375L250 0H2Z" />
<glyph unicode="&#xc1;" glyph-name="Aacute" horiz-adv-x="1130" d="M931 1966L575 1665L488 1751L815 2089L931 1966ZM432 640H715L574 1129L432 640ZM2 0L434 1515H696L1128 0H897L772 439H375L250 0H2Z" />
<glyph unicode="&#xc2;" glyph-name="Acircumflex" horiz-adv-x="1130" d="M579 1760L827 2008L1076 1759L982 1667L829 1820L674 1665L579 1760ZM432 640H715L574 1129L432 640ZM2 0L434 1515H696L1128 0H897L772 439H375L250 0H2Z" />
<glyph unicode="&#xc3;" glyph-name="Atilde" horiz-adv-x="1130" d="M886 1865Q815 1665 663 1665Q579 1665 514 1710T409 1755T349 1734T312 1672L182 1732Q205 1823 271 1877T393 1931T487 1917T550 1885Q614 1839 662 1839Q700 1839 717 1862Q739 1893 752
1927L886 1865ZM432 640H715L574 1129L432 640ZM2 0L434 1515H696L1128 0H897L772 439H375L250 0H2Z" />
<glyph unicode="&#xc4;" glyph-name="Adieresis" horiz-adv-x="1130" d="M635 1665V1908H877V1665H635ZM255 1665V1908H497V1665H255ZM432 640H715L574 1129L432 640ZM2 0L434 1515H696L1128 0H897L772 439H375L250 0H2Z" />
<glyph unicode="&#xc5;" glyph-name="Aring" horiz-adv-x="1130" d="M249 1628T249 1746T332 1948T535 2033T738 1949T822 1746T738 1543Q719 1524 698 1509L1128 0H897L772 439H375L250 0H2L424 1481Q374 1502 333 1543Q249 1628 249 1746ZM398 1803T398 1746T438
1649T535 1609T632 1649T672 1746T632 1843T535 1883T438 1843ZM432 640H715L574 1129L432 640Z" />
<glyph unicode="&#xc6;" glyph-name="AE" horiz-adv-x="1741" d="M687 640V1314H630L437 640H687ZM687 439H380L255 0H2L434 1515H1554V1314H926V895H1363V693H926V215H1592V0H687V439Z" />
<glyph unicode="&#xc7;" glyph-name="Ccedilla" horiz-adv-x="1183" d="M79 570Q63 664 63 760T78 949T122 1130T199 1293T308 1424Q438 1543 631 1543Q876 1543 1018 1298Q1087 1179 1111 1053V1052L903 996Q887 1103 865 1152T821 1235T773 1291Q711 1342 633
1342T498 1307T406 1214T346 1079Q302 937 302 759Q302 287 526 195Q574 175 628 175T724 189T796 225T847 279T883 341T905 406Q920 464 920 514L1143 483Q1098 291 986 150Q867 2 696 -21Q785 -115 785 -229Q785 -313 673 -347Q608 -367 501 -361V-209Q626 -209
626 -163Q626 -89 577 -23Q349 -1 204 225Q113 366 79 570Z" />
<glyph unicode="&#xc8;" glyph-name="Egrave" horiz-adv-x="1079" d="M230 1966L346 2089L673 1751L586 1665L230 1966ZM123 0V1515H990V1314H362V895H799V693H362V215H1028V0H123Z" />
<glyph unicode="&#xc9;" glyph-name="Eacute" horiz-adv-x="1079" d="M923 1966L567 1665L480 1751L807 2089L923 1966ZM123 0V1515H990V1314H362V895H799V693H362V215H1028V0H123Z" />
<glyph unicode="&#xca;" glyph-name="Ecircumflex" horiz-adv-x="1079" d="M570 1760L818 2008L1067 1759L973 1667L820 1820L665 1665L570 1760ZM123 0V1515H990V1314H362V895H799V693H362V215H1028V0H123Z" />
<glyph unicode="&#xcb;" glyph-name="Edieresis" horiz-adv-x="1079" d="M627 1665V1908H869V1665H627ZM247 1665V1908H489V1665H247ZM123 0V1515H990V1314H362V895H799V693H362V215H1028V0H123Z" />
<glyph unicode="&#xcc;" glyph-name="Igrave" horiz-adv-x="437" d="M-109 1966L7 2089L334 1751L247 1665L-109 1966ZM99 0V1515H338V0H99Z" />
<glyph unicode="&#xcd;" glyph-name="Iacute" horiz-adv-x="437" d="M584 1966L228 1665L141 1751L468 2089L584 1966ZM99 0V1515H338V0H99Z" />
<glyph unicode="&#xce;" glyph-name="Icircumflex" horiz-adv-x="437" d="M232 1760L480 2008L729 1759L635 1667L482 1820L327 1665L232 1760ZM99 0V1515H338V0H99Z" />
<glyph unicode="&#xcf;" glyph-name="Idieresis" horiz-adv-x="437" d="M288 1665V1908H530V1665H288ZM-92 1665V1908H150V1665H-92ZM99 0V1515H338V0H99Z" />
<glyph unicode="&#xd0;" glyph-name="Eth" horiz-adv-x="1214" d="M351 201H495Q598 201 678 239T803 334T878 468Q928 596 928 716T917 914T875 1067T798 1196Q693 1314 495 1314H351V833H642V652H351V201ZM9 652V833H112V1515H469Q1018 1515 1130 1074Q1167
931 1167 776T1145 514T1072 311T942 147Q772 0 469 0H112V652H9Z" />
<glyph unicode="&#xd1;" glyph-name="Ntilde" horiz-adv-x="1272" d="M957 1865Q886 1665 734 1665Q650 1665 585 1710T480 1755T420 1734T383 1672L253 1732Q276 1823 342 1877T464 1931T558 1917T621 1885Q685 1839 733 1839Q771 1839 788 1862Q810 1893 823
1927L957 1865ZM917 585V1515H1155V0H965L353 1162V0H115V1515H423L917 585Z" />
<glyph unicode="&#xd2;" glyph-name="Ograve" horiz-adv-x="1274" d="M322 1966L438 2089L765 1751L678 1665L322 1966ZM310 910T306 858T302 752T306 644T320 532T347 423T390 327T452 247Q529 175 646 175Q971 175 971 753Q971 1224 751 1321Q703 1342 645 1342T537
1321T453 1266T391 1182T347 1081T321 970ZM73 601Q63 677 63 752T72 903T102 1057T154 1206T232 1338T339 1446Q466 1543 648 1543Q898 1543 1048 1337Q1210 1113 1210 752Q1210 384 1054 172Q908 -26 648 -26Q401 -26 243 173Q109 341 73 601Z" />
<glyph unicode="&#xd3;" glyph-name="Oacute" horiz-adv-x="1274" d="M1015 1966L659 1665L572 1751L899 2089L1015 1966ZM310 910T306 858T302 752T306 644T320 532T347 423T390 327T452 247Q529 175 646 175Q971 175 971 753Q971 1224 751 1321Q703 1342 645
1342T537 1321T453 1266T391 1182T347 1081T321 970ZM73 601Q63 677 63 752T72 903T102 1057T154 1206T232 1338T339 1446Q466 1543 648 1543Q898 1543 1048 1337Q1210 1113 1210 752Q1210 384 1054 172Q908 -26 648 -26Q401 -26 243 173Q109 341 73 601Z" />
<glyph unicode="&#xd4;" glyph-name="Ocircumflex" horiz-adv-x="1274" d="M662 1760L910 2008L1159 1759L1065 1667L912 1820L757 1665L662 1760ZM310 910T306 858T302 752T306 644T320 532T347 423T390 327T452 247Q529 175 646 175Q971 175 971 753Q971 1224
751 1321Q703 1342 645 1342T537 1321T453 1266T391 1182T347 1081T321 970ZM73 601Q63 677 63 752T72 903T102 1057T154 1206T232 1338T339 1446Q466 1543 648 1543Q898 1543 1048 1337Q1210 1113 1210 752Q1210 384 1054 172Q908 -26 648 -26Q401 -26 243 173Q109
341 73 601Z" />
<glyph unicode="&#xd5;" glyph-name="Otilde" horiz-adv-x="1274" d="M970 1865Q899 1665 747 1665Q663 1665 598 1710T493 1755T433 1734T396 1672L266 1732Q289 1823 355 1877T477 1931T571 1917T634 1885Q698 1839 746 1839Q784 1839 801 1862Q823 1893 836
1927L970 1865ZM310 910T306 858T302 752T306 644T320 532T347 423T390 327T452 247Q529 175 646 175Q971 175 971 753Q971 1224 751 1321Q703 1342 645 1342T537 1321T453 1266T391 1182T347 1081T321 970ZM73 601Q63 677 63 752T72 903T102 1057T154 1206T232
1338T339 1446Q466 1543 648 1543Q898 1543 1048 1337Q1210 1113 1210 752Q1210 384 1054 172Q908 -26 648 -26Q401 -26 243 173Q109 341 73 601Z" />
<glyph unicode="&#xd6;" glyph-name="Odieresis" horiz-adv-x="1274" d="M719 1665V1908H961V1665H719ZM339 1665V1908H581V1665H339ZM310 910T306 858T302 752T306 644T320 532T347 423T390 327T452 247Q529 175 646 175Q971 175 971 753Q971 1224 751 1321Q703
1342 645 1342T537 1321T453 1266T391 1182T347 1081T321 970ZM73 601Q63 677 63 752T72 903T102 1057T154 1206T232 1338T339 1446Q466 1543 648 1543Q898 1543 1048 1337Q1210 1113 1210 752Q1210 384 1054 172Q908 -26 648 -26Q401 -26 243 173Q109 341 73 601Z"
/>
<glyph unicode="&#xd7;" glyph-name="multiply" horiz-adv-x="999" d="M-5 1044L147 1196L451 892L755 1196L907 1045L603 741L905 437L753 285L451 589L147 285L-5 436L299 740L-5 1044Z" />
<glyph unicode="&#xd8;" glyph-name="Oslash" horiz-adv-x="1261" d="M296 687T302 626T322 496Q327 470 333 447L814 1277Q744 1342 640 1342Q502 1342 424 1239Q347 1139 322 1006Q296 875 296 781ZM86 487T72 575T57 745T66 903T96 1057T148 1206T226 1338T333
1446Q460 1543 642 1543Q806 1543 921 1461L994 1588L1179 1481L1070 1292Q1161 1143 1192 926Q1204 839 1204 741T1189 539T1133 330T1031 148T869 23T655 -26T454 8Q400 28 355 59L276 -78L93 31L203 221L194 235Q145 311 116 399ZM932 1055L458 236Q529 175
640 175Q777 175 849 272T944 497Q965 626 965 716T962 858T949 969Q942 1014 932 1055Z" />
<glyph unicode="&#xd9;" glyph-name="Ugrave" horiz-adv-x="1234" d="M294 1966L410 2089L737 1751L650 1665L294 1966ZM123 448V1515H362V505Q362 252 525 191Q567 175 619 175T713 189T781 224T826 277T854 337T869 401Q875 449 875 505V1515H1119V448Q1119
219 968 85Q843 -26 620 -26Q281 -26 170 231Q123 337 123 448Z" />
<glyph unicode="&#xda;" glyph-name="Uacute" horiz-adv-x="1234" d="M987 1966L631 1665L544 1751L871 2089L987 1966ZM123 448V1515H362V505Q362 252 525 191Q567 175 619 175T713 189T781 224T826 277T854 337T869 401Q875 449 875 505V1515H1119V448Q1119
219 968 85Q843 -26 620 -26Q281 -26 170 231Q123 337 123 448Z" />
<glyph unicode="&#xdb;" glyph-name="Ucircumflex" horiz-adv-x="1234" d="M635 1760L883 2008L1132 1759L1038 1667L885 1820L730 1665L635 1760ZM123 448V1515H362V505Q362 252 525 191Q567 175 619 175T713 189T781 224T826 277T854 337T869 401Q875 449 875
505V1515H1119V448Q1119 219 968 85Q843 -26 620 -26Q281 -26 170 231Q123 337 123 448Z" />
<glyph unicode="&#xdc;" glyph-name="Udieresis" horiz-adv-x="1234" d="M691 1665V1908H933V1665H691ZM311 1665V1908H553V1665H311ZM123 448V1515H362V505Q362 252 525 191Q567 175 619 175T713 189T781 224T826 277T854 337T869 401Q875 449 875 505V1515H1119V448Q1119
219 968 85Q843 -26 620 -26Q281 -26 170 231Q123 337 123 448Z" />
<glyph unicode="&#xdd;" glyph-name="Yacute" horiz-adv-x="1122" d="M927 1966L571 1665L484 1751L811 2089L927 1966ZM680 701V0H442V701L2 1515H254L561 942L868 1515H1120L680 701Z" />
<glyph unicode="&#xde;" glyph-name="Thorn" horiz-adv-x="1151" d="M365 519H503Q759 519 832 656Q859 707 859 781T812 912Q723 1017 503 1017H365V519ZM125 0V1515H365V1218H647Q911 1218 1034 1015Q1099 907 1099 783Q1099 548 951 417Q839 318 647 318H365V0H125Z" />
<glyph unicode="&#xdf;" glyph-name="germandbls" horiz-adv-x="1202" d="M391 900T443 963T610 1089T725 1229Q725 1281 685 1309T593 1337T512 1331T461 1316T422 1286T394 1247T375 1191T363 1126T356 1042Q353 963 353 836V0H125V882Q125 1127 138 1188T167
1300T206 1380T263 1442T342 1492Q447 1531 558 1531T749 1491T878 1381T927 1220T880 1051T739 930Q642 884 627 864Q597 825 597 793T605 742T624 708T656 680T695 658T744 638T795 622L851 606Q1063 547 1114 403Q1135 345 1135 266T1086 120T955 18T792 -18T657
-8T552 27Q456 76 379 212L527 302Q563 252 593 222Q663 152 771 152Q858 152 895 188Q929 221 929 288Q929 364 880 402Q836 435 793 448L699 474Q536 520 464 598Q391 677 391 788Z" />
<glyph unicode="&#xe0;" glyph-name="agrave" horiz-adv-x="939" d="M424 1496L540 1619L867 1281L780 1195L424 1496ZM284 272Q284 213 313 187T385 160T449 165T492 180L529 199Q545 208 565 224L594 247Q602 254 620 270L638 287V534Q414 482 345 422Q284 368
284 272ZM668 0Q638 18 638 93L619 71Q533 -21 373 -21Q179 -21 107 116Q70 184 70 273T101 431T204 554Q333 650 638 711Q638 782 634 798T624 828T610 849T590 866T562 879Q523 889 476 889T387 875T321 842T276 800Q250 768 239 744L99 830Q143 921 175 951T238
1004T304 1039Q388 1070 475 1070T613 1061T711 1027T788 961Q852 872 852 701V149Q852 121 862 70T882 0H668Z" />
<glyph unicode="&#xe1;" glyph-name="aacute" horiz-adv-x="939" d="M906 1442L550 1141L463 1227L790 1565L906 1442ZM284 272Q284 213 313 187T385 160T449 165T492 180L529 199Q545 208 565 224L594 247Q602 254 620 270L638 287V534Q414 482 345 422Q284 368
284 272ZM668 0Q638 18 638 93L619 71Q533 -21 373 -21Q179 -21 107 116Q70 184 70 273T101 431T204 554Q333 650 638 711Q638 782 634 798T624 828T610 849T590 866T562 879Q523 889 476 889T387 875T321 842T276 800Q250 768 239 744L99 830Q143 921 175 951T238
1004T304 1039Q388 1070 475 1070T613 1061T711 1027T788 961Q852 872 852 701V149Q852 121 862 70T882 0H668Z" />
<glyph unicode="&#xe2;" glyph-name="acircumflex" horiz-adv-x="939" d="M255 1254L503 1502L752 1253L658 1161L505 1314L350 1159L255 1254ZM284 272Q284 213 313 187T385 160T449 165T492 180L529 199Q545 208 565 224L594 247Q602 254 620 270L638 287V534Q414
482 345 422Q284 368 284 272ZM668 0Q638 18 638 93L619 71Q533 -21 373 -21Q179 -21 107 116Q70 184 70 273T101 431T204 554Q333 650 638 711Q638 782 634 798T624 828T610 849T590 866T562 879Q523 889 476 889T387 875T321 842T276 800Q250 768 239 744L99
830Q143 921 175 951T238 1004T304 1039Q388 1070 475 1070T613 1061T711 1027T788 961Q852 872 852 701V149Q852 121 862 70T882 0H668Z" />
<glyph unicode="&#xe3;" glyph-name="atilde" horiz-adv-x="939" d="M839 1385Q768 1185 616 1185Q532 1185 467 1230T362 1275T302 1254T265 1192L135 1252Q158 1343 224 1397T346 1451T440 1437T503 1405Q567 1359 615 1359Q653 1359 670 1382Q692 1413 705
1447L839 1385ZM284 272Q284 213 313 187T385 160T449 165T492 180L529 199Q545 208 565 224L594 247Q602 254 620 270L638 287V534Q414 482 345 422Q284 368 284 272ZM668 0Q638 18 638 93L619 71Q533 -21 373 -21Q179 -21 107 116Q70 184 70 273T101 431T204
554Q333 650 638 711Q638 782 634 798T624 828T610 849T590 866T562 879Q523 889 476 889T387 875T321 842T276 800Q250 768 239 744L99 830Q143 921 175 951T238 1004T304 1039Q388 1070 475 1070T613 1061T711 1027T788 961Q852 872 852 701V149Q852 121 862
70T882 0H668Z" />
<glyph unicode="&#xe4;" glyph-name="adieresis" horiz-adv-x="939" d="M550 1188V1431H792V1188H550ZM170 1188V1431H412V1188H170ZM284 272Q284 213 313 187T385 160T449 165T492 180L529 199Q545 208 565 224L594 247Q602 254 620 270L638 287V534Q414 482
345 422Q284 368 284 272ZM668 0Q638 18 638 93L619 71Q533 -21 373 -21Q179 -21 107 116Q70 184 70 273T101 431T204 554Q333 650 638 711Q638 782 634 798T624 828T610 849T590 866T562 879Q523 889 476 889T387 875T321 842T276 800Q250 768 239 744L99 830Q143
921 175 951T238 1004T304 1039Q388 1070 475 1070T613 1061T711 1027T788 961Q852 872 852 701V149Q852 121 862 70T882 0H668Z" />
<glyph unicode="&#xe5;" glyph-name="aring" horiz-adv-x="939" d="M376 1469T376 1412T416 1315T513 1275T610 1315T650 1412T610 1509T513 1549T416 1509ZM226 1293T226 1412T310 1615T513 1699T716 1615T800 1412T716 1209T514 1125T311 1209ZM284 272Q284
213 313 187T385 160T449 165T492 180L529 199Q545 208 565 224L594 247Q602 254 620 270L638 287V534Q414 482 345 422Q284 368 284 272ZM668 0Q638 18 638 93L619 71Q533 -21 373 -21Q179 -21 107 116Q70 184 70 273T101 431T204 554Q333 650 638 711Q638 782
634 798T624 828T610 849T590 866T562 879Q523 889 476 889T387 875T321 842T276 800Q250 768 239 744L99 830Q143 921 175 951T238 1004T304 1039Q388 1070 475 1070T613 1061T711 1027T788 961Q852 872 852 701V149Q852 121 862 70T882 0H668Z" />
<glyph unicode="&#xe6;" glyph-name="ae" horiz-adv-x="1540" d="M851 654H1221Q1221 732 1194 788Q1142 892 1050 892Q927 892 876 776Q851 718 851 654ZM482 1070Q687 1070 769 967Q874 1073 1052 1073Q1249 1073 1352 908Q1449 754 1443 471H841Q841 268 948
199Q1003 163 1063 163T1164 178T1228 212T1272 257Q1298 289 1309 316L1445 228Q1374 101 1287 43Q1195 -18 1072 -18Q809 -18 697 178Q697 178 689 165T674 143L653 116Q640 98 625 84L590 54Q500 -21 360 -21Q166 -21 93 116Q57 184 57 274T87 435T189 559Q317
653 625 711Q625 782 621 798T611 828T597 849T577 866T549 879Q510 889 463 889T374 875T308 842T263 800Q236 768 226 744L86 830Q130 921 161 951T224 1004T291 1039Q375 1070 482 1070ZM271 288Q271 160 393 160Q438 160 469 175T516 199T552 224L581 247Q589
254 607 270L625 287V534Q401 482 332 422Q271 368 271 288Z" />
<glyph unicode="&#xe7;" glyph-name="ccedilla" horiz-adv-x="937" d="M59 520Q59 834 196 967Q304 1073 498 1073T803 909Q839 856 853 810L672 730Q664 812 605 860Q565 892 506 892Q273 892 273 529Q273 350 334 257T512 163Q594 163 645 223Q689 275 709 334L873
262Q850 173 775 93Q692 5 573 -13Q663 -107 662 -221Q662 -305 551 -339Q485 -359 378 -353V-201Q504 -201 504 -155Q504 -81 455 -16Q59 14 59 520Z" />
<glyph unicode="&#xe8;" glyph-name="egrave" horiz-adv-x="936" d="M413 1496L529 1619L856 1281L769 1195L413 1496ZM283 652H653Q653 730 626 787Q574 892 482 892Q427 892 386 868T323 804Q283 731 283 652ZM84 273T72 345T59 528T85 743T152 908T251 1008Q350
1073 484 1073Q610 1073 704 998Q880 856 872 471H273Q273 269 380 199Q435 163 495 163T596 178T660 212T704 256Q731 291 741 316L877 228Q803 99 719 44Q626 -18 515 -18T325 11T197 88T116 204Z" />
<glyph unicode="&#xe9;" glyph-name="eacute" horiz-adv-x="936" d="M850 1496L494 1195L407 1281L734 1619L850 1496ZM283 652H653Q653 730 626 787Q574 892 482 892Q427 892 386 868T323 804Q283 731 283 652ZM84 273T72 345T59 528T85 743T152 908T251 1008Q350
1073 484 1073Q610 1073 704 998Q880 856 872 471H273Q273 269 380 199Q435 163 495 163T596 178T660 212T704 256Q731 291 741 316L877 228Q803 99 719 44Q626 -18 515 -18T325 11T197 88T116 204Z" />
<glyph unicode="&#xea;" glyph-name="ecircumflex" horiz-adv-x="936" d="M498 1290L746 1538L995 1289L901 1197L748 1350L593 1195L498 1290ZM283 652H653Q653 730 626 787Q574 892 482 892Q427 892 386 868T323 804Q283 731 283 652ZM84 273T72 345T59 528T85
743T152 908T251 1008Q350 1073 484 1073Q610 1073 704 998Q880 856 872 471H273Q273 269 380 199Q435 163 495 163T596 178T660 212T704 256Q731 291 741 316L877 228Q803 99 719 44Q626 -18 515 -18T325 11T197 88T116 204Z" />
<glyph unicode="&#xeb;" glyph-name="edieresis" horiz-adv-x="936" d="M554 1195V1438H796V1195H554ZM174 1195V1438H416V1195H174ZM283 652H653Q653 730 626 787Q574 892 482 892Q427 892 386 868T323 804Q283 731 283 652ZM84 273T72 345T59 528T85 743T152
908T251 1008Q350 1073 484 1073Q610 1073 704 998Q880 856 872 471H273Q273 269 380 199Q435 163 495 163T596 178T660 212T704 256Q731 291 741 316L877 228Q803 99 719 44Q626 -18 515 -18T325 11T197 88T116 204Z" />
<glyph unicode="&#xec;" glyph-name="igrave" horiz-adv-x="527" d="M-123 1496L-7 1619L320 1281L233 1195L-123 1496ZM96 0V1055H310V0H96Z" />
<glyph unicode="&#xed;" glyph-name="iacute" horiz-adv-x="527" d="M570 1496L214 1195L127 1281L454 1619L570 1496ZM96 0V1055H310V0H96Z" />
<glyph unicode="&#xee;" glyph-name="icircumflex" horiz-adv-x="527" d="M473 1290L721 1538L970 1289L876 1197L723 1350L568 1195L473 1290ZM96 0V1055H310V0H96Z" />
<glyph unicode="&#xef;" glyph-name="idieresis" horiz-adv-x="527" d="M530 1451V1694H772V1451H530ZM150 1451V1694H392V1451H150ZM96 0V1055H310V0H96Z" />
<glyph unicode="&#xf0;" glyph-name="eth" horiz-adv-x="1015" d="M278 644Q273 593 273 532T279 419T302 320T342 238Q395 163 491 163Q709 163 709 527Q709 736 645 822Q593 892 491 892Q303 892 278 644ZM59 528Q59 778 174 925T491 1073Q564 1073 593 1065T647
1048Q643 1072 618 1137T581 1222L402 1120L332 1239L514 1345Q474 1398 417 1452T343 1515H550Q586 1496 651 1423L812 1515L882 1396L741 1314Q908 1039 921 640Q923 581 923 495T909 332T861 189T778 78Q673 -18 491 -18Q226 -18 122 201Q59 332 59 528Z" />
<glyph unicode="&#xf1;" glyph-name="ntilde" horiz-adv-x="988" d="M822 1395Q751 1195 599 1195Q515 1195 450 1240T345 1285T285 1264T248 1202L118 1262Q141 1353 207 1407T329 1461T423 1447T486 1415Q550 1369 598 1369Q636 1369 653 1392Q675 1423 688
1457L822 1395ZM892 791V0H678V735Q678 807 635 849T531 892T412 857T324 786V0H110V1055H324V943Q382 1001 445 1037T594 1073Q724 1073 808 1003T892 791Z" />
<glyph unicode="&#xf2;" glyph-name="ograve" horiz-adv-x="982" d="M421 1496L537 1619L864 1281L777 1195L421 1496ZM279 649Q273 596 273 535T279 425T300 327T340 242Q394 162 492 162Q709 162 709 527Q709 741 645 824Q593 892 492 892Q307 892 279 649ZM59
528Q59 778 174 925T492 1073Q626 1073 724 1005Q923 866 923 527Q923 104 659 8Q586 -19 493 -19T325 8T202 83T120 201Q59 331 59 528Z" />
<glyph unicode="&#xf3;" glyph-name="oacute" horiz-adv-x="982" d="M858 1496L502 1195L415 1281L742 1619L858 1496ZM279 649Q273 596 273 535T279 425T300 327T340 242Q394 162 492 162Q709 162 709 527Q709 741 645 824Q593 892 492 892Q307 892 279 649ZM59
528Q59 778 174 925T492 1073Q626 1073 724 1005Q923 866 923 527Q923 104 659 8Q586 -19 493 -19T325 8T202 83T120 201Q59 331 59 528Z" />
<glyph unicode="&#xf4;" glyph-name="ocircumflex" horiz-adv-x="982" d="M506 1290L754 1538L1003 1289L909 1197L756 1350L601 1195L506 1290ZM279 649Q273 596 273 535T279 425T300 327T340 242Q394 162 492 162Q709 162 709 527Q709 741 645 824Q593 892 492
892Q307 892 279 649ZM59 528Q59 778 174 925T492 1073Q626 1073 724 1005Q923 866 923 527Q923 104 659 8Q586 -19 493 -19T325 8T202 83T120 201Q59 331 59 528Z" />
<glyph unicode="&#xf5;" glyph-name="otilde" horiz-adv-x="982" d="M813 1395Q742 1195 590 1195Q506 1195 441 1240T336 1285T276 1264T239 1202L109 1262Q132 1353 198 1407T320 1461T414 1447T477 1415Q541 1369 589 1369Q627 1369 644 1392Q666 1423 679
1457L813 1395ZM279 649Q273 596 273 535T279 425T300 327T340 242Q394 162 492 162Q709 162 709 527Q709 741 645 824Q593 892 492 892Q307 892 279 649ZM59 528Q59 778 174 925T492 1073Q626 1073 724 1005Q923 866 923 527Q923 104 659 8Q586 -19 493 -19T325
8T202 83T120 201Q59 331 59 528Z" />
<glyph unicode="&#xf6;" glyph-name="odieresis" horiz-adv-x="982" d="M562 1195V1438H804V1195H562ZM182 1195V1438H424V1195H182ZM279 649Q273 596 273 535T279 425T300 327T340 242Q394 162 492 162Q709 162 709 527Q709 741 645 824Q593 892 492 892Q307
892 279 649ZM59 528Q59 778 174 925T492 1073Q626 1073 724 1005Q923 866 923 527Q923 104 659 8Q586 -19 493 -19T325 8T202 83T120 201Q59 331 59 528Z" />
<glyph unicode="&#xf7;" glyph-name="divide" horiz-adv-x="909" d="M31 633V848H872V633H31ZM331 250V494H575V250H331ZM333 984V1228H577V984H333Z" />
<glyph unicode="&#xf8;" glyph-name="oslash" horiz-adv-x="1073" d="M560 883Q530 892 486 892T404 875T341 827T301 749Q273 665 273 563T283 403L560 883ZM697 691L404 183Q443 162 493 162T582 184T645 241T684 326Q709 412 709 518T697 691ZM261 -64L75 43L142
159Q59 295 59 536T174 925T492 1073Q579 1073 653 1043L701 1128L887 1021L821 907Q923 761 923 527Q923 104 659 8Q586 -19 487 -19T307 15L261 -64Z" />
<glyph unicode="&#xf9;" glyph-name="ugrave" horiz-adv-x="998" d="M183 1496L299 1619L626 1281L539 1195L183 1496ZM118 264V1055H332V320Q332 248 375 206T478 163T597 198T686 269V1055H900V0H686V112Q556 -18 416 -18Q290 -18 207 48Q118 119 118 264Z" />
<glyph unicode="&#xfa;" glyph-name="uacute" horiz-adv-x="998" d="M876 1496L520 1195L433 1281L760 1619L876 1496ZM118 264V1055H332V320Q332 248 375 206T478 163T597 198T686 269V1055H900V0H686V112Q556 -18 416 -18Q290 -18 207 48Q118 119 118 264Z" />
<glyph unicode="&#xfb;" glyph-name="ucircumflex" horiz-adv-x="998" d="M523 1290L771 1538L1020 1289L926 1197L773 1350L618 1195L523 1290ZM118 264V1055H332V320Q332 248 375 206T478 163T597 198T686 269V1055H900V0H686V112Q556 -18 416 -18Q290 -18 207
48Q118 119 118 264Z" />
<glyph unicode="&#xfc;" glyph-name="udieresis" horiz-adv-x="998" d="M580 1195V1438H822V1195H580ZM200 1195V1438H442V1195H200ZM118 264V1055H332V320Q332 248 375 206T478 163T597 198T686 269V1055H900V0H686V112Q556 -18 416 -18Q290 -18 207 48Q118 119
118 264Z" />
<glyph unicode="&#xfd;" glyph-name="yacute" horiz-adv-x="903" d="M816 1496L460 1195L373 1281L700 1619L816 1496ZM2 1055H240L462 422L660 1055H898L546 -32Q493 -196 458 -248Q423 -300 395 -330T333 -378Q228 -437 23 -406Q14 -405 14 -405L24 -206Q61
-222 121 -222T218 -206T277 -165T316 -110T340 -48Q355 13 356 64L2 1055Z" />
<glyph unicode="&#xfe;" glyph-name="thorn" horiz-adv-x="1015" d="M332 231Q388 163 491 163Q643 163 705 277Q756 368 756 544Q756 794 614 866Q562 892 512 892T437 885T392 862Q361 839 332 805V231ZM118 -409V1515H332V965Q345 988 384 1017Q460 1073 547
1073T703 1042T821 960T904 840Q970 708 970 547Q970 258 836 102Q733 -18 553 -18Q499 -18 447 1T365 41T332 75V-409H118Z" />
<glyph unicode="&#xff;" glyph-name="ydieresis" horiz-adv-x="903" d="M520 1451V1694H762V1451H520ZM140 1451V1694H382V1451H140ZM2 1055H240L462 422L660 1055H898L546 -32Q493 -196 458 -248Q423 -300 395 -330T333 -378Q228 -437 23 -406Q14 -405 14 -405L24
-206Q61 -222 121 -222T218 -206T277 -165T316 -110T340 -48Q355 13 356 64L2 1055Z" />
<glyph unicode="&#x2013;" glyph-name="endash" horiz-adv-x="1024" d="M0 669H1024V488H0V669Z" />
<glyph unicode="&#x2014;" glyph-name="emdash" horiz-adv-x="2048" d="M0 669H2048V488H0V669Z" />
<glyph unicode="&#x2018;" glyph-name="quoteleft" horiz-adv-x="334" d="M294 1000H196L44 1296V1493H288V1250H214L294 1000Z" />
<glyph unicode="&#x2019;" glyph-name="quoteright" horiz-adv-x="334" d="M44 1000L124 1250H50V1493H294V1296L142 1000H44Z" />
<glyph unicode="&#x201a;" glyph-name="quotesinglbase" horiz-adv-x="444" d="M44 0L124 250H50V493H294V296L142 0H44Z" />
<glyph unicode="&#x201c;" glyph-name="quotedblleft" horiz-adv-x="606" d="M273 1000H175L23 1296V1493H267V1250H193L273 1000ZM584 1000H486L334 1296V1493H578V1250H504L584 1000Z" />
<glyph unicode="&#x201d;" glyph-name="quotedblright" horiz-adv-x="578" d="M334 1000L414 1250H340V1493H584V1296L432 1000H334ZM23 1000L103 1250H29V1493H273V1296L121 1000H23Z" />
<glyph unicode="&#x201e;" glyph-name="quotedblbase" horiz-adv-x="578" d="M336 -47L416 203H342V446H586V249L434 -47H336ZM25 -47L105 203H31V446H275V249L123 -47H25Z" />
<glyph unicode="&#x2022;" glyph-name="bullet" horiz-adv-x="507" d="M184 513T138 562T92 675T138 788T251 836T366 787T415 675T367 563T251 513Z" />
<glyph unicode="&#x2039;" glyph-name="guilsinglleft" horiz-adv-x="1029" d="M314 744L975 216L869 88L48 744L869 1400L975 1272L314 744Z" />
<glyph unicode="&#x203a;" glyph-name="guilsinglright" horiz-adv-x="1029" d="M709 744L48 1272L154 1400L975 744L154 88L48 216L709 744Z" />
</font>
</defs>
</svg>
